Novedades

SD > CJ Lewis - Everything Is Alright [Uptight] [1994]

AcerBen

Elite Uploaders
Elite Uploaders
Registrado
13 Abr 2010
Mensajes
1.222
Puntos de reacción
1.533
Puntos
113
CJLewis-EverythingIsAlrightUptightvob_thumbs_20141005_135049_zps358cae99.jpg


Format : MPEG-PS
File size : 257 MiB
Duration : 3mn 45s
Overall bit rate mode : Variable
Overall bit rate : 9 570 Kbps

Video
ID : 224 (0xE0)
Format : MPEG Video
Format version : Version 2
Format profile : Main@Main
Format settings, BVOP : Yes
Format settings, Matrix : Custom
Format settings, GOP : M=3, N=12
Duration : 3mn 45s
Bit rate mode : Variable
Bit rate : 7 844 Kbps
Maximum bit rate : 9 800 Kbps
Width : 720 pixels
Height : 576 pixels
Display aspect ratio : 4:3
Frame rate : 25.000 fps
Standard : PAL
Color space : YUV
Chroma subsampling : 4:2:0
Bit depth : 8 bits
Scan type : Interlaced
Scan order : Top Field First
Compression mode : Lossy
Bits/(Pixel*Frame) : 0.757
Time code of first frame : 00:00:00:00
Time code source : Group of pictures header
Stream size : 211 MiB (82%)
Matrix coefficients : BT.601

Audio
ID : 189 (0xBD)-160 (0xA0)
Format : PCM
Format settings, Endianness : Big
Format settings, Sign : Signed
Muxing mode : DVD-Video
Duration : 3mn 45s
Bit rate mode : Constant
Bit rate : 1 536 Kbps
Channel(s) : 2 channels
Sampling rate : 48.0 KHz
Bit depth : 16 bits
Stream size : 41.3 MiB (16%)

Source: MM
Host: MF

Debe hacer clic en el botón "Thanks" para poder ver el contenido oculto
Si eres un usuario nuevo, no puedes descargar ningún vídeo de este foro ni de ningún otro foro
Para desbloquear los enlaces de descarga debes aumentar tu rango o donar
 

valdemar

Elite Uploaders
Elite Uploaders
Registrado
2 Abr 2020
Mensajes
7.249
Puntos de reacción
2.785
Puntos
113
The video is not clean ***MM***
 
  • Administrators Super Moderator Moderator Legend Members VIP Members Lifetime Donor Elite Members Elite Uploaders Uploaders CB Addicts Members
shape1
shape2
shape3
shape4
shape5
shape6
Arriba