Novedades

SD > Robbie Williams - Rock Dj "Version Completa"- Ac3 - 5.1] [2000]

kevincito

Uploaders
Uploaders
Registrado
3 Oct 2015
Mensajes
176
Puntos de reacción
582
Puntos
93
Edad
27
Robbie Williams - Rock DJ "Version Completa"[DVD-Clean-Lpcm-Ac3-5.1] [2000]

Robbie Williams - Rock DJ "Version Completa"(DVD-Clean-Lpcm-Ac3-5.1) [2000]


2r7uhzt.jpg


Media Info
Video
ID : 224 (0xE0)
Format : MPEG Video
Format version : Version 2
Format profile : Main@Main
Format settings, BVOP : Yes
Format settings, Matrix : Custom
Format settings, GOP : M=3, N=12
Format settings, picture struc : Frame
Duration : 5mn 40s
Bit rate mode : Variable
Bit rate : 7 819 Kbps
Maximum bit rate : 8 000 Kbps
Width : 720 pixels
Height : 576 pixels
Display aspect ratio : 4:3
Frame rate : 25.000 fps
Standard : PAL
Color space : YUV
Chroma subsampling : 4:2:0
Bit depth : 8 bits
Scan type : Interlaced
Scan order : Top Field First
Compression mode : Lossy
Bits/(Pixel*Frame) : 0.754
Time code of first frame : 09:59:59:00
Time code source : Group of pictures header
GOP, Open/Closed : Closed
Stream size : 317 MiB (78%)

Audio #1
ID : 189 (0xBD)-128 (0x80)
Format : AC-3
Format/Info : Audio Coding 3
Mode extension : CM (complete main)
Format settings, Endianness : Big
Muxing mode : DVD-Video
Duration : 5mn 38s
Bit rate mode : Constant
Bit rate : 448 Kbps
Channel(s) : 6 channels
Channel positions : Front: L C R, Side: L R, LFE
Sampling rate : 48.0 KHz
Compression mode : Lossy
Delay relative to video : 1s 40ms
Stream size : 18.1 MiB (4%)

Audio #2
ID : 189 (0xBD)-161 (0xA1)
Format : PCM
Format settings, Endianness : Big
Format settings, Sign : Signed
Muxing mode : DVD-Video
Duration : 5mn 40s
Bit rate mode : Constant
Bit rate : 1 536 Kbps
Channel(s) : 2 channels
Sampling rate : 48.0 KHz
Bit depth : 16 bits
Stream size : 62.3 MiB (15%)​

MEGA
Debe hacer clic en el botón "Thanks" para poder ver el contenido oculto
Si eres un usuario nuevo, no puedes descargar ningún vídeo de este foro ni de ningún otro foro
Para desbloquear los enlaces de descarga debes aumentar tu rango o donar
 

americadxd

Uploaders
Uploaders
Registrado
9 Ago 2014
Mensajes
204
Puntos de reacción
595
Puntos
0
Link caido

Disculpa por escribir pero me aparecia que el video habia sido eliminado. Ya volvi a comprobar y esta en linea
 
  • Administrators Super Moderator Moderator Legend Members VIP Members Lifetime Donor Elite Members Elite Uploaders Uploaders CB Addicts Members
shape1
shape2
shape3
shape4
shape5
shape6
Arriba